<?xml version="1.0" standalone="no"?>
<!DOCTYPE svg PUBLIC "-//W3C//DTD SVG 1.1//EN" "http://www.w3.org/Graphics/SVG/1.1/DTD/svg11.dtd" >
<svg xmlns="http://www.w3.org/2000/svg">
<metadata>Generated by IcoMoon</metadata>
<defs>
<font id="email-customizer" horiz-adv-x="1024">
<font-face units-per-em="1024" ascent="1024" descent="0" />
<missing-glyph horiz-adv-x="1024" />
<glyph unicode="&#x20;" horiz-adv-x="0" d="" />
<glyph unicode="&#xe900;" glyph-name="1col" horiz-adv-x="2128" d="M0 1024h2128v-1024h-2128v1024z" />
<glyph unicode="&#xe901;" glyph-name="2cols" horiz-adv-x="2128" d="M5 1024h1024v-1024h-1024v1024zM1104 1024h1024v-1024h-1024v1024z" />
<glyph unicode="&#xe902;" glyph-name="3cols" horiz-adv-x="2128" d="M0 1024h670.63v-1024h-670.63v1024zM728.686 1024h670.628v-1024h-670.628v1024zM1457.372 1024h670.628v-1024h-670.628v1024z" />
<glyph unicode="&#xe903;" glyph-name="image" d="M959.884 896c0.040-0.034 0.082-0.076 0.116-0.116v-767.77c-0.034-0.040-0.076-0.082-0.116-0.116h-895.77c-0.040 0.034-0.082 0.076-0.114 0.116v767.772c0.034 0.040 0.076 0.082 0.114 0.114h895.77zM960 960h-896c-35.2 0-64-28.8-64-64v-768c0-35.2 28.8-64 64-64h896c35.2 0 64 28.8 64 64v768c0 35.2-28.8 64-64 64v0zM832 736c0-53.020-42.98-96-96-96s-96 42.98-96 96 42.98 96 96 96 96-42.98 96-96zM896 192h-768v128l224 384 256-320h64l224 192z" />
<glyph unicode="&#xe904;" glyph-name="divider" d="M-199.824 540h1433.604v-56h-1433.604v56z" />
<glyph unicode="&#xe905;" glyph-name="button" d="M964 840.666h-904c-33 0-60-27-60-60v-280c0-33 27-60 60-60h409.584v64h-385.584c-11 0-20 9-20 20v232c0 11 9 20 20 20h856c11 0 20-9 20-20v-232c0-11-9-20-20-20h-167.086l80-64h111.086c33 0 60 27 60 60v280c0 33-27 60-60 60zM669.436 388.355l75.898-176.438-57.168-28.586-66.406 181.188-105.094-95.438v371.585l285.834-228.667-133.064-23.645z" />
<glyph unicode="&#xe906;" glyph-name="order-detail" d="M736 278h-448c-17.672 0-32 14.324-32 32 0 17.672 14.328 32 32 32h448c17.674 0 32-14.328 32-32 0-17.676-14.326-32-32-32zM736 406h-448c-17.672 0-32 14.324-32 32 0 17.672 14.328 32 32 32h448c17.674 0 32-14.328 32-32 0-17.676-14.326-32-32-32zM736 534h-448c-17.672 0-32 14.326-32 32s14.328 32 32 32h448c17.674 0 32-14.326 32-32s-14.326-32-32-32zM917.81 794.924c-22.212 30.292-53.176 65.7-87.178 99.704-34.006 34.004-69.414 64.964-99.708 87.178-51.572 37.82-76.59 42.194-90.922 42.194h-532.95c-44.112 0-43.052-0.908-43.052-45.020l0.1-934.076c0-44.112 2.352-44.904 46.462-44.904h795.854c44.112 0 53.584 2.080 53.584 46.192v657.808c0.002 14.332-4.37 39.35-42.19 90.924zM785.376 849.374c30.7-30.7 54.8-58.398 72.58-81.374h-153.954v153.946c22.986-17.78 50.678-41.876 81.374-72.572v0zM896.002 80c0-8.672-7.326-16-16-16h-736c-8.672 0-16 7.328-16 16v864c0 8.67 7.328 16 16 16 0 0 495.956 0.002 496 0v-224c0-17.67 14.326-32 32.002-32h223.998v-624z" />
<glyph unicode="&#xe907;" glyph-name="order-detail1" d="M0 1024h256v-256h-256zM384 960h640v-128h-640zM0 640h256v-256h-256zM384 576h640v-128h-640zM0 256h256v-256h-256zM384 192h640v-128h-640z" />
<glyph unicode="&#xe908;" glyph-name="billing-address" d="M917.81 794.924c-22.212 30.292-53.176 65.7-87.178 99.704-34.006 34.004-69.414 64.964-99.708 87.178-51.572 37.82-76.59 42.194-90.922 42.194h-532.95c-44.11 0-43.052-0.908-43.052-45.020l0.102-934.076c0-44.112 2.352-44.904 46.46-44.904h795.856c44.112 0 53.584 2.080 53.584 46.192v657.808c0 14.332-4.372 39.35-42.192 90.924zM785.376 849.374c30.7-30.7 54.8-58.398 72.58-81.374h-153.954v153.946c22.986-17.78 50.678-41.876 81.374-72.572v0zM896.002 80c0-8.672-7.326-16-16-16h-736c-8.672 0-15.998 7.328-15.998 16v864c0 8.67 7.326 16 15.998 16 0 0 495.956 0.002 496 0v-224c0-17.67 14.326-32 32.002-32h223.998v-624zM512 670.004c-93.882 0-170-76.118-170-169.998 0-170.002 170-374.012 170-374.012s170 204.010 170 374.012c0 93.882-76.122 169.998-170 169.998zM512 398c-56.338 0-102.006 45.66-102.006 102.008 0 56.322 45.666 101.99 102.006 101.99 56.322 0 102.004-45.666 102.004-101.99 0-56.348-45.682-102.008-102.004-102.008z" />
<glyph unicode="&#xe909;" glyph-name="order-total" d="M917.808 794.924c-22.212 30.292-53.176 65.7-87.178 99.704-34.006 34.004-69.414 64.964-99.708 87.178-51.572 37.82-76.59 42.194-90.922 42.194h-532.95c-44.112 0-43.052-0.908-43.052-45.020l0.1-934.076c0-44.112 2.352-44.904 46.462-44.904h795.854c44.112 0 53.584 2.080 53.584 46.192v657.808c0.002 14.332-4.37 39.35-42.19 90.924zM785.376 849.374c30.7-30.7 54.8-58.398 72.58-81.374h-153.954v153.946c22.984-17.78 50.676-41.876 81.374-72.572v0zM896 80c0-8.672-7.326-16-16-16h-736c-8.672 0-16 7.328-16 16v864c0 8.67 7.328 16 16 16 0 0 495.956 0.002 496 0v-224c0-17.67 14.326-32 32.002-32h223.998v-624zM709.388 283.274l20.396 43.516h17.46l-29.406-176.436h-441.084v34.114l152.334 179.746-152.334 152.334v104.298h450.274l20.216-117.622h-15.792l-8.602 17.862c-16.228 33.708-28.444 40.948-63.822 40.948h-304.164l162.216-162.214-136.654-161.248h249.196c53.304-0.002 67.38 19.102 79.766 44.702z" />
<glyph unicode="&#xe90a;" glyph-name="social" d="M864 320c-45.16 0-85.92-18.738-115.012-48.83l-431.004 215.502c1.314 8.252 2.016 16.706 2.016 25.328s-0.702 17.076-2.016 25.326l431.004 215.502c29.092-30.090 69.852-48.828 115.012-48.828 88.366 0 160 71.634 160 160s-71.634 160-160 160-160-71.634-160-160c0-8.622 0.704-17.076 2.016-25.326l-431.004-215.504c-29.092 30.090-69.852 48.83-115.012 48.83-88.366 0-160-71.636-160-160 0-88.368 71.634-160 160-160 45.16 0 85.92 18.738 115.012 48.828l431.004-215.502c-1.312-8.25-2.016-16.704-2.016-25.326 0-88.368 71.634-160 160-160s160 71.632 160 160c0 88.364-71.634 160-160 160z" />
<glyph unicode="&#xe90b;" glyph-name="footer" d="M112 1024v-1024h800v1024h-800zM901.582 240.334h-779.166v773.666h779.166v-773.666zM133 167h514v-21h-514v21zM133 92.334h514v-21h-514v21z" />
<glyph unicode="&#xe90c;" glyph-name="product" d="M0 844.548l182.858 166.308h152.75c0 0 25.922-121.696 176.394-124.732 0 0 130.62-10.818 176.356 124.732h152.786l182.856-166.308-73.144-249.464-109.712 83.152v-665.236h-658.286v665.236l-109.714-83.152-73.144 249.464z" />
<glyph unicode="&#xe90d;" glyph-name="shipping-address" d="M768 234q28 0 46 19t18 45-18 45-46 19-46-19-18-45 18-45 46-19zM832 618h-106v-106h190zM256 234q28 0 46 19t18 45-18 45-46 19-46-19-18-45 18-45 46-19zM854 682l128-170v-214h-86q0-52-38-90t-90-38-90 38-38 90h-256q0-52-38-90t-90-38-90 38-38 90h-86v470q0 34 26 60t60 26h598v-172h128z" />
<glyph unicode="&#xe90e;" glyph-name="text" d="M910.094 732.112c-16.382 74.748-12.294 71.078-26.672 99.836-16.31 32.62-77.85 30.68-194.578 30.68h-104.442l0.080-674.226c0-118.778 13.31-136.182 158.708-145.396v-43.006h-453.602v43.004c140.28 9.214 153.59 25.596 153.59 145.396l-0.132 674.146h-89.082c-133.112 0-184.306-3.026-202.17-30.6-17.482-26.984-15.794-29.184-35.25-99.838h-46.078c7.168 97.274 11.776 208.954 14.846 291.892h32.766c22.528-37.886 41.982-37.886 87.036-37.886h620.508c41.98 0 56.316 9.216 79.866 37.886h32.768c0-68.602 10.752-196.666 17.916-286.772l-46.078-5.116z" />
<glyph unicode="&#xe90f;" glyph-name="spacer" d="M512 0l-294.158 294.158h226.276v271.528h135.764v-271.528h226.274l-294.156-294.158zM444.118 456.312v271.528l-226.274 0.004 294.156 294.156 294.156-294.156-226.274-0.004v-271.528h-135.764z" />
<glyph unicode="&#xe910;" glyph-name="4cols" horiz-adv-x="2128" d="M0 1024h499.498v-1024h-499.498v1024zM542.738 1024h499.496v-1024h-499.496v1024zM1085.478 1024h499.496v-1024h-499.496v1024zM1628.504 1024h499.496v-1024h-499.496v1024z" />
<glyph unicode="&#xe911;" glyph-name="coupon" d="M960 864h-608c-8.512 0-16.64-3.392-22.656-9.344l-41.344-41.408-41.344 41.408c-6.016 5.952-14.144 9.344-22.656 9.344h-160c-35.264 0-64-28.736-64-64v-576c0-35.264 28.736-64 64-64h160c8.512 0 16.64 3.392 22.656 9.344l41.344 41.408 41.344-41.344c6.016-6.016 14.144-9.408 22.656-9.408h608c35.264 0 64 28.736 64 64v576c0 35.264-28.736 64-64 64zM960 192v32h-594.752l-45.248 45.248v82.752h-64v-82.752l-45.248-45.248h-146.752v576h146.752l45.248-45.248v-82.752h64v82.752l45.248 45.248h594.752v-576c0 0 0 0 0.064 0l-0.064-32zM544 736c-52.928 0-96-43.072-96-96s43.072-96 96-96 96 43.072 96 96-43.072 96-96 96zM544 608c-17.664 0-32 14.336-32 32s14.336 32 32 32c17.664 0 32-14.336 32-32s-14.336-32-32-32zM736 480c-52.928 0-96-43.072-96-96s43.072-96 96-96 96 43.072 96 96-43.072 96-96 96zM736 352c-17.664 0-32 14.336-32 32s14.336 32 32 32c17.664 0 32-14.336 32-32s-14.336-32-32-32zM820.48 728.576c-13.632 11.328-33.728 9.472-45.12-4.096l-320-384c-11.328-13.568-9.472-33.792 4.096-45.12 6.016-4.928 13.312-7.36 20.544-7.36 9.216 0 18.304 3.904 24.64 11.52l320 384c11.264 13.568 9.408 33.792-4.16 45.056zM256 480h64v-64h-64v64zM256 608h64v-64h-64v64z" />
<glyph unicode="&#xe912;" glyph-name="note1" d="M241.999 432.906c-12.162 0-23.409 7.885-27.126 20.125-4.55 14.988 3.908 30.826 18.896 35.379l481.84 146.367c14.988 4.55 30.826-3.905 35.383-18.893 4.55-14.991-3.908-30.829-18.893-35.383l-481.847-146.364c-2.744-0.84-5.523-1.232-8.253-1.232zM296.298 254.16c-12.162 0-23.409 7.885-27.126 20.125-4.55 14.991 3.908 30.829 18.893 35.379l481.843 146.371c14.988 4.543 30.826-3.908 35.379-18.896s-3.908-30.826-18.893-35.379l-481.843-146.367c-2.751-0.833-5.523-1.232-8.253-1.232zM981.258 318.938l-149.777 493.053c-14.421 47.466-57.412 79.36-106.991 79.36-10.991 0-21.944-1.632-32.536-4.85l-178.848-54.33 6.294-57.313c0.003-0.020 0-0.038 0.003-0.058l189.037 57.423c5.246 1.594 10.65 2.403 16.053 2.403 24.040 0 45.715-16.087 52.709-39.124l149.777-493.053c8.834-29.085-7.639-59.935-36.721-68.765l-574.659-174.558c-5.243-1.594-10.646-2.403-16.049-2.403v0c-24.040 0-45.718 16.087-52.712 39.124l-149.777 493.056c-4.28 14.087-2.816 29.003 4.12 41.987 6.939 12.991 18.514 22.497 32.601 26.778l291.703 88.61h-73.957c-15.346-0.003-27.293 13.329-25.614 28.587l0.051 0.468-208.671-63.389c-28.587-8.68-52.077-27.976-66.154-54.33-14.073-26.354-17.043-56.61-8.356-85.193l149.774-493.056c14.418-47.469 57.412-79.363 106.988-79.363 0.003 0 0.003 0 0.003 0 10.994 0 21.941 1.632 32.536 4.85l574.659 174.565c59.010 17.92 92.436 80.51 74.513 139.523zM493.783 717.913v0h-142.244c-15.367 0-30.061 6.56-40.315 18.005s-15.176 26.767-13.5 42.042l10.312 93.877c-28.529 1.498-51.272 25.173-51.272 54.060v43.964c0.003 29.853 24.286 54.139 54.139 54.139h223.505c29.85 0 54.135-24.286 54.135-54.139v-43.971c0-28.884-22.743-52.562-51.261-54.064l10.312-93.87c1.673-15.278-3.246-30.601-13.5-42.039-10.254-11.441-24.945-18.005-40.311-18.005zM354.423 774.636h136.468l-10.305 93.795c-1.679 15.271 3.239 30.594 13.493 42.039 9.68 10.807 23.316 17.258 37.738 17.947v38.861l-218.33-0.003v-38.847c14.432-0.693 28.064-7.144 37.745-17.944 10.25-11.445 15.176-26.767 13.5-42.042l-10.308-93.805zM422.653 616.533c-15.66 0-28.361 12.698-28.361 28.361v101.379c0 15.664 12.701 28.365 28.361 28.365 15.664 0 28.365-12.698 28.365-28.365v-101.376c0-15.667-12.698-28.365-28.365-28.365z" />
<glyph unicode="&#xe913;" glyph-name="hook" d="M907.179 873.803c0.092 82.33-66.731 149.125-149.255 149.231-82.521 0.106-149.501-66.57-149.583-148.913-0.082-67.082 44.776-125.955 109.582-143.848v-442.832c0-115.268-93.658-208.705-209.203-208.705-115.531 0-209.19 93.437-209.19 208.705v150.852l57.979-75.728c13.363-17.449 38.397-20.784 55.883-7.455 17.497 13.339 20.835 38.301 7.475 55.747l-201.032 262.373v-385.792c0-159.174 129.345-288.215 288.884-288.215 159.556 0 288.898 129.041 288.898 288.215v442.836c64.628 17.934 109.425 76.588 109.561 143.531v0zM757.75 804.239c-38.509 0-69.734 31.147-69.734 69.564 0 38.424 31.222 69.571 69.734 69.571s69.738-31.147 69.738-69.571c0-38.417-31.229-69.564-69.738-69.564v0z" />
<glyph unicode="&#xe914;" glyph-name="transfer" d="M288 992v-272h-256v-432h256v-272h704v976h-704zM96 352v304h352v-145.961c-94.266 11.937-152.297 48.336-156.273 50.898l-17.414-26.844-17.5-26.789c4.758-3.109 76.43-48.602 191.188-61.492v-93.812h-352zM928 80h-576v208h160v154.406c51.031 0.328 108.141 7.797 169.922 27.094l-4.984-98.844 151.062 213.344-258.281-5.195 81.016-51.805c-50.375-14.5-96.969-20.344-138.734-20.688v213.688h-160v208h576v-848z" />
<glyph unicode="&#xe915;" glyph-name="header" d="M961.143 73.143c-50.286 0-101.143 4-152 4-50.286 0-100.571-4-150.857-4-19.429 0-28.571 21.143-28.571 37.714 0 50.857 57.143 29.143 86.857 48.571 18.857 12 18.857 60 18.857 80l-0.571 223.429c0 6.286 0 12-0.571 17.714-9.143 2.857-19.429 2.286-28.571 2.286h-385.714c-9.714 0-20 0.571-29.143-2.286-0.571-5.714-0.571-11.429-0.571-17.714l-0.571-212c0-21.714 0-81.143 21.143-93.714 29.714-18.286 97.143 7.429 97.143-44 0-17.143-8-40-28-40-53.143 0-106.286 4-158.857 4-48.571 0-97.143-4-145.714-4-18.857 0-27.429 21.714-27.429 37.714 0 49.714 52.571 29.143 80.571 48.571 18.286 12.571 18.857 61.714 18.857 81.714l-0.571 32.571v464.571c0 27.429 4 115.429-21.714 130.857-28.571 17.714-89.714-9.714-89.714 41.714 0 16.571 7.429 40 27.429 40 52.571 0 105.714-4 158.286-4 48 0 96.571 4 144.571 4 20.571 0 28.571-22.857 28.571-40 0-49.143-56.571-25.143-84.571-42.857-20-12-20-70.857-20-91.429l0.571-182.857c0-6.286 0-12 0.571-18.286 7.429-1.714 14.857-1.714 22.286-1.714h399.429c6.857 0 14.286 0 21.714 1.714 0.571 6.286 0.571 12 0.571 18.286l0.571 182.857c0 21.143 0 79.429-20 91.429-28.571 17.143-85.714-5.714-85.714 42.857 0 17.143 8 40 28.571 40 50.286 0 100.571-4 150.857-4 49.143 0 98.286 4 147.429 4 20.571 0 28.571-22.857 28.571-40 0-49.714-58.857-24.571-87.429-42.286-19.429-12.571-20-71.429-20-92l0.571-538.857c0-18.857 1.143-68.571 19.429-80 29.143-18.286 90.857 5.143 90.857-44.571 0-16.571-7.429-40-27.429-40z" />
<glyph unicode="&#xe93f;" glyph-name="payment-method" d="M928 896h-832c-52.8 0-96-43.2-96-96v-576c0-52.8 43.2-96 96-96h832c52.8 0 96 43.2 96 96v576c0 52.8-43.2 96-96 96zM96 832h832c17.346 0 32-14.654 32-32v-96h-896v96c0 17.346 14.654 32 32 32zM928 192h-832c-17.346 0-32 14.654-32 32v288h896v-288c0-17.346-14.654-32-32-32zM128 384h64v-128h-64zM256 384h64v-128h-64zM384 384h64v-128h-64z" />
<glyph unicode="&#xe944;" glyph-name="address-book" d="M192 1024v-1024h768v1024h-768zM576 767.67c70.51 0 127.67-57.16 127.67-127.67s-57.16-127.67-127.67-127.67-127.67 57.16-127.67 127.67 57.16 127.67 127.67 127.67v0zM768 256h-384v64c0 70.696 57.306 128 128 128v0h128c70.696 0 128-57.304 128-128v-64zM64 960h96v-192h-96v192zM64 704h96v-192h-96v192zM64 448h96v-192h-96v192zM64 192h96v-192h-96v192z" />
<glyph unicode="&#xe946;" glyph-name="pushpin" d="M544 1024l-96-96 96-96-224-256h-224l176-176-272-360.616v-39.384h39.384l360.616 272 176-176v224l256 224 96-96 96 96-480 480zM448 480l-64 64 224 224 64-64-224-224z" />
<glyph unicode="&#xe99a;" glyph-name="order-subtotal" d="M448 448v448c-247.424 0-448-200.576-448-448s200.576-448 448-448 448 200.576 448 448c0 72.034-17.028 140.084-47.236 200.382l-400.764-200.382zM912.764 776.382c-73.552 146.816-225.374 247.618-400.764 247.618v-448l400.764 200.382z" />
<glyph unicode="&#xe9bd;" glyph-name="menu" d="M64 832h896v-192h-896zM64 576h896v-192h-896zM64 320h896v-192h-896z" />
<glyph unicode="&#xf108;" glyph-name="uniF108" d="M787.684 157.531c0 21.754 7.715 40.311 23.086 55.699 15.373 15.371 33.945 23.070 55.707 23.070 21.729 0 40.303-7.699 55.674-23.070 15.396-15.389 23.086-33.945 23.086-55.699 0-21.752-7.697-40.311-23.086-55.682-15.371-15.389-33.945-23.086-55.674-23.086-21.762 0-40.334 7.697-55.707 23.086-15.371 15.371-23.086 33.93-23.086 55.682zM1012.302 854.78c7.803-7.807 11.691-17.039 11.695-27.703v-315.084c0-9.852-3.273-18.568-9.84-26.15-6.563-7.602-14.98-11.996-25.225-13.234l-642.476-75.076c0.41-2.875 1.328-7.287 2.766-13.219 1.436-5.957 2.664-11.402 3.691-16.314 1.029-4.912 1.543-9.428 1.543-13.541 0-6.566-4.924-19.68-14.773-39.375h566.138c10.666 0 19.9-3.91 27.689-11.701 7.803-7.789 11.697-17.023 11.697-27.689 0-10.668-3.895-19.9-11.697-27.705-7.791-7.775-17.025-11.686-27.689-11.686h-630.128c-10.668 0-19.895 3.912-27.699 11.686-7.791 7.807-11.691 17.039-11.691 27.705 0 5.74 2.258 13.838 6.77 24.311 4.508 10.461 10.559 22.66 18.148 36.615 7.592 13.957 11.797 21.744 12.613 23.383l-108.918 506.468h-125.523c-10.666 0-19.896 3.895-27.697 11.689-7.797 7.795-11.695 17.025-11.695 27.691 0 10.664 3.898 19.9 11.695 27.695 7.793 7.785 17.023 11.689 27.697 11.689h157.535c6.563 0 12.412-1.336 17.537-3.994 5.129-2.674 9.232-5.844 12.303-9.547 3.076-3.684 5.742-8.715 7.998-15.078 2.262-6.357 3.793-11.799 4.617-16.297 0.822-4.518 1.947-10.566 3.383-18.158 1.436-7.59 2.357-12.816 2.773-15.686h739.070c10.67 0 19.895-3.898 27.693-11.695zM236.3 157.531c0 21.754 7.697 40.311 23.076 55.699 15.383 15.371 33.949 23.070 55.697 23.070 21.738 0 40.303-7.699 55.686-23.070 15.395-15.389 23.084-33.945 23.084-55.699 0-21.752-7.697-40.311-23.084-55.682-15.381-15.389-33.947-23.086-55.686-23.086-21.75 0-40.305 7.697-55.697 23.086-15.387 15.371-23.076 33.93-23.076 55.682z" />
</font>
</defs>
</svg>
